<?xml version="1.0" standalone="no"?>
<!DOCTYPE svg PUBLIC "-//W3C//DTD SVG 1.1//EN" "http://www.w3.org/Graphics/SVG/1.1/DTD/svg11.dtd" >
<svg xmlns="http://www.w3.org/2000/svg" xmlns:xlink="http://www.w3.org/1999/xlink" version="1.1">
<metadata>
Created by FontForge 20170731 at Fri Jan  1 02:30:17 1904
 By Aleksey,,,
Copyright 1985-1994 Adobe Systems Inc.
</metadata>
<defs>
<font id="Helvetica-Light" horiz-adv-x="1139" >
  <font-face 
    font-family="Helvetica Light"
    font-weight="400"
    font-stretch="normal"
    units-per-em="2048"
    panose-1="2 11 5 0 0 0 0 0 0 0"
    ascent="1638"
    descent="-410"
    x-height="1061"
    cap-height="1474"
    bbox="-336 -512 2048 2005"
    underline-thickness="102"
    underline-position="-358"
    unicode-range="U+0020-F002"
  />
<missing-glyph horiz-adv-x="748" 
d="M68 0v1365h544v-1365h-544zM136 68h408v1229h-408v-1229z" />
    <glyph glyph-name=".notdef" horiz-adv-x="748" 
d="M68 0v1365h544v-1365h-544zM136 68h408v1229h-408v-1229z" />
    <glyph glyph-name="glyph1" horiz-adv-x="0" 
 />
    <glyph glyph-name="nonmarkingreturn" horiz-adv-x="682" 
 />
    <glyph glyph-name="equal" unicode=" " horiz-adv-x="569" 
 />
    <glyph glyph-name="greater" unicode="!" horiz-adv-x="682" 
d="M295 371h92l29 645v458h-150v-458zM416 0v180h-150v-180h150z" />
    <glyph glyph-name="question" unicode="&#x22;" horiz-adv-x="569" 
d="M117 1012h106v462h-106v-462zM344 1012h107v462h-107v-462z" />
    <glyph glyph-name="at" unicode="#" 
d="M1032 588h-209l41 286h221v121h-204l63 434h-121l-63 -434h-279l66 434h-123l-66 -434h-245v-121h229l-43 -286h-244v-121h226l-70 -467h121l69 467h281l-64 -467h121l66 467h227v121zM743 874l-41 -286h-282l45 286h278z" />
    <glyph glyph-name="A" unicode="$" 
d="M522 807v0q-55 18 -104 39q-49 18 -88 47q-37 31 -60 76q-24 43 -24 108q0 117 82 187q77 69 194 69v-526zM618 659v0q68 -12 125 -30q56 -19 99 -52q43 -30 65 -79q23 -52 23 -129q-2 -131 -90 -211q-88 -84 -222 -86v587zM618 -39q170 8 304 107q135 100 139 278
q0 117 -29 193q-31 75 -90 122q-119 89 -324 127v545q115 -2 191 -67q74 -66 76 -183h133q-8 176 -117 269q-111 94 -283 92v125h-94v-125q-170 4 -286 -99q-121 -100 -123 -274q2 -188 121 -270q114 -84 286 -121v-608q-139 12 -225 108q-88 94 -88 236h-133q2 -49 10 -101
q84 -338 438 -354v-156h94v156z" />
    <glyph glyph-name="B" unicode="%" horiz-adv-x="1821" 
d="M1347 678q-141 -2 -237 -98q-100 -97 -102 -240q2 -141 102 -238q96 -100 237 -102q146 2 240 102q92 97 94 238q-2 143 -96 240q-92 96 -238 98v0zM1345 561q93 -2 156 -65q62 -64 64 -156q-2 -92 -64 -156q-63 -65 -156 -67q-88 2 -153 67q-66 62 -68 152q0 96 66 160
q61 63 155 65v0zM815 1089q-2 146 -98 242q-97 96 -242 98q-141 -2 -237 -100q-99 -96 -101 -240q2 -141 101 -237q96 -98 237 -100q145 2 242 100q96 96 98 237v0zM475 868q-92 2 -153 68q-66 61 -68 153q2 95 68 158q61 64 153 66q94 -2 158 -66q63 -65 65 -158
q-2 -92 -65 -153q-66 -66 -158 -68v0zM1368 1444h-107l-813 -1473h107z" />
    <glyph glyph-name="C" unicode="&#x26;" horiz-adv-x="1366" 
d="M510 768l420 -500q-72 -88 -164 -141q-92 -55 -211 -55q-143 0 -236 86q-94 86 -96 231q2 121 84 221q41 49 92 90q54 41 111 68v0zM774 1106q-33 -68 -92 -113q-62 -45 -125 -82v0q-43 51 -94 131q-25 39 -41 76q-19 39 -19 70q2 84 62 131q55 45 135 45q59 0 102 -23
q41 -24 62 -63q47 -82 10 -172v0zM999 381l-370 438q59 37 112 72q54 33 92 76q84 79 86 223q-2 121 -83 203q-84 79 -226 81q-139 0 -231 -73q-98 -74 -100 -215q0 -97 51 -176q45 -82 106 -154q-145 -63 -246 -178q-104 -113 -106 -279q2 -198 135 -315q131 -121 326 -123
q284 -4 465 213v0l143 -174h166l-240 283q103 178 103 385h-121q0 -74 -10 -148q-13 -74 -52 -139v0z" />
    <glyph glyph-name="D" unicode="'" horiz-adv-x="455" 
d="M174 1012h107v462h-107v-462z" />
    <glyph glyph-name="E" unicode="(" horiz-adv-x="682" 
d="M463 1513q-346 -413 -350 -948q0 -284 92 -506q90 -221 258 -450h104q-305 428 -313 946q4 526 313 958h-104z" />
    <glyph glyph-name="F" unicode=")" horiz-adv-x="682" 
d="M219 -391q168 217 260 444q90 228 90 504q0 287 -90 508t-260 448h-104q305 -428 313 -946q-6 -524 -313 -958h104z" />
    <glyph glyph-name="G" unicode="*" horiz-adv-x="797" 
d="M354 1235l-227 88v0l-37 -86l229 -82l-157 -207l71 -55v0l160 217v0l152 -221v0l80 49l-154 217l233 76l-30 90v0l-234 -86v0v239h-86v-239v0z" />
    <glyph glyph-name="H" unicode="+" horiz-adv-x="1352" 
d="M614 573h-450v-122h450v-451h123v451h451v122h-451v451h-123v-451z" />
    <glyph glyph-name="I" unicode="," horiz-adv-x="569" 
d="M358 180h-149v-180h70v-70q0 -59 -21 -90q-22 -30 -49 -45v-76q67 21 108 76q41 56 41 144v241z" />
    <glyph glyph-name="J" unicode="-" horiz-adv-x="682" 
d="M82 596v-127h518v127h-518z" />
    <glyph glyph-name="K" unicode="." horiz-adv-x="569" 
d="M358 0v180h-149v-180h149z" />
    <glyph glyph-name="L" unicode="/" horiz-adv-x="569" 
d="M590 1513h-115l-481 -1697h115z" />
    <glyph glyph-name="M" unicode="0" 
d="M926 711q4 -230 -60 -422q-35 -90 -108 -148q-72 -59 -189 -59q-202 2 -282 170q-78 164 -76 444q-2 250 72 441q71 192 282 196q223 -6 297 -194q39 -86 53 -199q11 -111 11 -229v0zM569 1444q-151 -2 -250 -62q-98 -61 -149 -168q-51 -102 -70 -233q-20 -131 -20 -270
q0 -150 22 -283q21 -133 74 -236q103 -215 393 -221q293 6 393 221q56 103 76 232q19 131 19 272q0 129 -15 260q-16 131 -67 242q-47 109 -146 178q-98 66 -260 68v0z" />
    <glyph glyph-name="N" unicode="1" 
d="M618 0h132v1444h-105q-16 -90 -47 -146q-35 -55 -84 -82q-49 -26 -117 -38q-67 -13 -151 -19v-86h372v-1073z" />
    <glyph glyph-name="O" unicode="2" 
d="M281 971q-2 151 84 256q86 104 229 106q139 0 227 -76q88 -77 90 -221q-2 -123 -65 -198q-64 -78 -170 -140q-103 -61 -225 -139q-125 -78 -240 -207q-66 -78 -88 -164q-23 -84 -25 -188h944v111h-804q8 102 63 172q51 67 125 118q86 60 192 117q105 57 205 125
q101 70 166 166q64 94 66 235q0 170 -111 285q-115 113 -334 115q-458 -13 -469 -473h140z" />
    <glyph glyph-name="P" unicode="3" 
d="M453 696q96 11 180 -2q84 -12 145 -47q129 -65 139 -239q2 -132 -96 -226q-102 -98 -262 -100q-162 0 -258 88q-100 84 -100 248h-131q22 -248 145 -348q121 -99 369 -99q225 11 346 135q119 121 119 304q2 106 -48 204q-55 99 -208 152q204 94 204 321q-2 183 -118 271
q-117 86 -293 86q-90 0 -174 -17q-84 -20 -154 -80q-141 -133 -139 -323h131q0 137 88 223q82 84 221 86q131 0 217 -59q88 -60 90 -195q-2 -162 -112 -221q-113 -57 -301 -55v-107z" />
    <glyph glyph-name="Q" unicode="4" 
d="M733 0h131v356h201v111h-201v962h-119l-671 -960v-113h659v-356zM733 1233v0v-766h-530z" />
    <glyph glyph-name="R" unicode="5" 
d="M72 375q22 -221 161 -314q140 -90 347 -90q184 2 319 127q133 125 137 353q-2 225 -127 350q-127 125 -329 127q-172 4 -318 -95v0l90 486h606v110h-716l-117 -747l108 -14q121 151 314 149q168 -2 262 -100q94 -101 96 -266q-2 -158 -92 -261q-90 -106 -254 -108
q-143 0 -237 74q-95 73 -119 219h-131z" />
    <glyph glyph-name="S" unicode="6" 
d="M1030 1089q-20 177 -135 265q-113 90 -287 90q-155 -2 -258 -72q-104 -72 -162 -188q-57 -117 -79 -254q-25 -137 -25 -269q2 -376 145 -534q142 -158 361 -156q456 9 463 469q-7 457 -459 465q-76 0 -135 -18q-58 -19 -101 -51q-43 -31 -75 -72q-37 -41 -68 -84v0
q8 106 25 219q16 113 55 211q39 100 119 162q75 59 206 61q232 -6 275 -244h135zM590 795q334 -5 332 -351q0 -135 -72 -245q-39 -54 -103 -84q-63 -33 -155 -33q-176 4 -252 119q-78 108 -76 235q0 152 88 254q86 103 238 105v0z" />
    <glyph glyph-name="T" unicode="7" 
d="M121 1298h762q-213 -264 -377 -618q-166 -356 -195 -680h144q8 223 145 586q135 358 440 721v122h-919v-131z" />
    <glyph glyph-name="U" unicode="8" 
d="M571 707q150 0 248 -74q96 -74 98 -228q-2 -145 -96 -233q-94 -90 -241 -90q-166 2 -261 92q-98 88 -98 223q2 160 103 236q94 74 247 74v0zM565 1333q293 -4 293 -231q-2 -152 -78 -217q-78 -70 -200 -68q-123 0 -213 64q-93 61 -95 192q2 129 86 195q84 65 207 65v0z
M342 776q-250 -108 -252 -379q4 -213 148 -317q137 -109 303 -109q233 0 370 115q135 111 138 324q-7 262 -256 358q198 100 196 324q-4 186 -133 270q-129 82 -303 82q-174 2 -289 -97q-121 -102 -123 -255q0 -123 49 -187q50 -65 152 -129v0z" />
    <glyph glyph-name="V" unicode="9" 
d="M109 317q22 -174 135 -260q112 -86 284 -86q508 2 527 744q2 311 -107 518q-112 207 -399 211q-236 -2 -348 -135q-117 -134 -117 -342q2 -213 123 -336q119 -127 323 -129q258 2 389 225l5 -4q-2 -96 -17 -207q-16 -113 -59 -209q-39 -96 -119 -160q-78 -65 -207 -65
q-237 0 -280 235h-133zM549 1333q155 -4 239 -102q84 -99 84 -260q0 -150 -84 -252q-84 -105 -239 -107q-330 4 -334 350q0 353 334 371v0z" />
    <glyph glyph-name="W" unicode=":" horiz-adv-x="569" 
d="M358 0v180h-149v-180h149zM358 827v181h-149v-181h149z" />
    <glyph glyph-name="X" unicode=";" horiz-adv-x="569" 
d="M358 180h-149v-180h70v-70q0 -59 -21 -90q-22 -30 -49 -45v-76q67 21 108 76q41 56 41 144v241zM358 827v181h-149v-181h149z" />
    <glyph glyph-name="Y" unicode="&#x3c;" horiz-adv-x="1352" 
d="M326 522l862 381v131v0l-1024 -457v-108l1024 -481v0v131z" />
    <glyph glyph-name="Z" unicode="=" horiz-adv-x="1352" 
d="M1188 774h-1024v-123h1024v123zM1188 377h-1024v-123h1024v123z" />
    <glyph glyph-name="bracketleft" unicode="&#x3e;" horiz-adv-x="1352" 
d="M1188 577l-1024 457v0v-131l862 -381l-862 -403v-131v0l1024 481v108z" />
    <glyph glyph-name="backslash" unicode="?" horiz-adv-x="1024" 
d="M561 373q-2 61 6 127q4 63 37 116q47 70 111 127q59 58 116 113q60 55 99 121q35 63 37 151q-9 375 -447 385q-203 -2 -328 -125q-124 -122 -114 -331h125q-2 149 80 247q82 97 233 99q154 -2 238 -76q82 -74 82 -188q0 -56 -25 -105t-70 -96q-41 -45 -90 -90t-96 -94
q-39 -41 -61 -84q-23 -43 -35 -90q-19 -95 -17 -207h119zM580 0v180h-150v-180h150z" />
    <glyph glyph-name="bracketright" unicode="@" horiz-adv-x="1638" 
d="M1401 342q-205 -274 -543 -279q-283 3 -463 195q-188 188 -190 471q2 287 184 481q178 197 465 201q242 -2 407 -143q168 -142 172 -396q-2 -172 -98 -327q-43 -74 -102 -121q-60 -49 -125 -49q-59 0 -59 51q0 45 24 115l207 618h-137l-31 -94v0q-33 67 -92 102
q-62 33 -137 33q-115 0 -207 -57q-92 -56 -160 -150q-139 -194 -141 -413q0 -129 78 -215q73 -91 206 -93q142 2 244 103v0q21 -56 72 -80q51 -27 104 -27q174 4 322 178q151 170 155 420q-4 289 -204 465q-199 180 -502 182q-320 -4 -539 -225q-225 -217 -229 -545
q4 -329 225 -551q215 -227 551 -231q207 2 385 102q180 101 279 279h-121zM690 401q-76 0 -117 58q-43 55 -43 131q0 155 99 315q47 76 112 125q66 47 146 49q65 -2 102 -43q39 -43 39 -106q-2 -154 -98 -332q-45 -82 -107 -137q-61 -53 -133 -60v0z" />
    <glyph glyph-name="asciicircum" unicode="A" horiz-adv-x="1366" 
d="M174 0l174 463h672l170 -463h143l-565 1474h-158l-579 -1474h143zM684 1356v0l289 -774h-578z" />
    <glyph glyph-name="underscore" unicode="B" horiz-adv-x="1366" 
d="M305 704h371q198 3 315 -51q117 -59 119 -237q0 -185 -109 -244q-112 -57 -342 -53h-354v585zM305 1356h322q227 0 323 -56q94 -59 92 -196q2 -133 -82 -205q-88 -76 -303 -76h-352v533zM768 0q215 0 348 94q131 94 133 322q0 307 -303 366v4q92 15 164 90q70 76 72 228
q2 170 -111 270q-115 98 -373 100h-532v-1474h602z" />
    <glyph glyph-name="grave" unicode="C" horiz-adv-x="1479" 
d="M1356 1046q-95 465 -572 467q-299 2 -489 -176q-195 -180 -197 -600q-2 -321 148 -542q149 -228 487 -234q295 4 445 158q149 147 194 366h-145q-41 -178 -158 -288q-117 -115 -309 -117q-295 4 -410 209q-59 94 -86 213q-26 114 -26 239q-2 271 122 459q121 190 387 195
q379 6 465 -349h144z" />
    <glyph glyph-name="a" unicode="D" horiz-adv-x="1479" 
d="M670 0q149 0 284 35t238 145q100 115 141 264q37 148 37 295q2 156 -49 334q-51 180 -197 291q-100 76 -215 94q-116 16 -239 16h-504v-1474h504zM305 1356h334q94 0 184 -9q88 -10 154 -47q153 -88 207 -239q49 -154 47 -322q2 -155 -49 -313q-52 -156 -197 -240
q-82 -41 -166 -55q-86 -14 -180 -12h-334v1237z" />
    <glyph glyph-name="b" unicode="E" horiz-adv-x="1251" 
d="M1167 0v119h-862v585h760v119h-760v533h842v118h-981v-1474h1001z" />
    <glyph glyph-name="c" unicode="F" 
d="M291 0v704h737v119h-737v533h811v118h-950v-1474h139z" />
    <glyph glyph-name="d" unicode="G" horiz-adv-x="1593" 
d="M1290 643q2 -166 -63 -305q-76 -139 -197 -199q-123 -59 -248 -59q-254 4 -393 184q-141 176 -141 426q-2 318 131 510q133 193 422 195q170 0 297 -91q127 -90 166 -258h143q-49 236 -213 353q-166 114 -404 114q-346 -4 -514 -221q-167 -213 -167 -547q2 -391 184 -587
q176 -197 461 -197q215 2 348 80q129 78 202 211v0v-252h119v762h-630v-119h497z" />
    <glyph glyph-name="e" unicode="H" horiz-adv-x="1479" 
d="M303 0v723h872v-723h140v1474h-140v-632h-872v632h-139v-1474h139z" />
    <glyph glyph-name="f" unicode="I" horiz-adv-x="569" 
d="M354 0v1474h-139v-1474h139z" />
    <glyph glyph-name="g" unicode="J" horiz-adv-x="1024" 
d="M45 467q0 -98 16 -188q15 -91 56 -162q43 -72 119 -113q75 -41 198 -43q418 4 416 442v1071h-139v-1066q6 -318 -260 -320q-95 0 -150 35q-53 33 -80 86q-22 55 -29 123q-8 65 -8 135h-139z" />
    <glyph glyph-name="h" unicode="K" horiz-adv-x="1366" 
d="M313 0v569l232 232v0l614 -801h170l-684 887l582 587h-158l-756 -763v0v763h-139v-1474h139z" />
    <glyph glyph-name="i" unicode="L" 
d="M1096 0v119h-791v1355h-139v-1474h930z" />
    <glyph glyph-name="j" unicode="M" horiz-adv-x="1706" 
d="M299 0v1315h4l485 -1315h131l484 1315h4v-1315h139v1474h-211l-475 -1300h-4l-483 1300h-213v-1474h139z" />
    <glyph glyph-name="k" unicode="N" horiz-adv-x="1479" 
d="M1153 0h162v1474h-140v-1288h-4l-852 1288h-157v-1474h139v1286h4z" />
    <glyph glyph-name="l" unicode="O" horiz-adv-x="1593" 
d="M109 735q0 -323 174 -545q172 -225 512 -229q342 4 516 229q172 222 172 545q0 334 -172 553q-174 221 -523 225q-329 -4 -503 -227q-176 -219 -176 -551v0zM797 80q-287 4 -418 199q-68 90 -98 208q-33 119 -33 248q0 268 133 461q131 194 412 199q540 -13 550 -660
q0 -266 -129 -456q-131 -195 -417 -199v0z" />
    <glyph glyph-name="m" unicode="P" horiz-adv-x="1251" 
d="M299 0v651h315q215 -4 387 84q174 88 179 328q2 172 -97 291q-51 55 -145 90q-94 30 -240 30h-538v-1474h139zM299 770v586h360q383 -2 381 -283q-2 -182 -110 -244q-113 -61 -312 -59h-319z" />
    <glyph glyph-name="n" unicode="Q" horiz-adv-x="1593" 
d="M1251 139q221 228 221 596q-18 772 -694 778q-344 -6 -512 -235q-168 -225 -168 -543q0 -323 174 -545q172 -225 512 -229q219 2 369 100v0l217 -167v0l78 94zM1149 219l-199 152v0l-74 -97l168 -129q-104 -65 -258 -65q-286 4 -417 199q-68 90 -99 208q-32 119 -32 248
q0 264 133 459q131 194 411 201q242 0 396 -162q153 -166 155 -498q0 -321 -184 -516v0z" />
    <glyph glyph-name="o" unicode="R" horiz-adv-x="1366" 
d="M303 788v568h442q148 2 250 -54q51 -28 80 -84q29 -55 29 -137q-2 -153 -105 -223q-102 -70 -262 -70h-434zM741 670h54q24 0 49 -4q47 -7 86 -25q41 -18 67 -55q25 -35 37 -97q8 -41 15 -106q4 -66 6 -141q6 -72 16 -136q8 -65 29 -106h153v14q-26 19 -41 84
q-14 68 -20 230q2 59 -4 120q-6 62 -25 117q-16 55 -53 99q-39 40 -107 63q244 98 240 360q-4 392 -502 387h-577v-1474h139v670h438z" />
    <glyph glyph-name="p" unicode="S" horiz-adv-x="1251" 
d="M88 440q2 -239 154 -358q145 -121 381 -121q530 6 538 430q0 107 -35 180q-34 70 -94 115q-59 47 -135 74q-76 26 -160 43q-82 18 -160 37q-79 18 -145 45q-65 26 -110 71q-48 43 -60 113q-18 121 66 221t295 105q147 0 253 -74q107 -80 109 -248h133q2 186 -121 311
q-125 127 -374 129q-246 -4 -373 -118q-127 -117 -127 -277q0 -106 41 -176q39 -72 100 -117q66 -45 146 -71q79 -27 163 -47q88 -19 168 -39q78 -21 142 -56q65 -32 102 -86q37 -55 37 -141q0 -123 -86 -211q-90 -92 -289 -94q-172 -2 -287 82q-116 84 -137 278h-135z" />
    <glyph glyph-name="q" unicode="T" 
d="M33 1356h467v-1356h139v1356h467v118h-1073v-118z" />
    <glyph glyph-name="r" unicode="U" horiz-adv-x="1479" 
d="M168 555q-2 -586 571 -594q572 6 572 594v919h-140v-878q11 -518 -432 -516q-438 -8 -432 516v878h-139v-919z" />
    <glyph glyph-name="s" unicode="V" horiz-adv-x="1251" 
d="M549 0h153l512 1474h-145l-442 -1310v0l-445 1310h-145z" />
    <glyph glyph-name="t" unicode="W" horiz-adv-x="1821" 
d="M987 1474h-156l-342 -1277h-4l-317 1277h-139l381 -1474h153l342 1302h4l342 -1302h154l387 1474h-143l-322 -1277h-4z" />
    <glyph glyph-name="u" unicode="X" horiz-adv-x="1251" 
d="M623 651l430 -651h159l-505 758l483 716h-162l-405 -620v0l-404 620h-162l488 -716l-508 -758h158l428 651v0z" />
    <glyph glyph-name="v" unicode="Y" horiz-adv-x="1251" 
d="M618 764l-434 710h-159l526 -841v-633h139v643l535 831h-162l-445 -710v0z" />
    <glyph glyph-name="w" unicode="Z" horiz-adv-x="1251" 
d="M1186 0v119h-950l944 1239v116h-1037v-118h865l-945 -1239v-117h1123z" />
    <glyph glyph-name="x" unicode="[" horiz-adv-x="682" 
d="M573 -391v102h-256v1700h260v102h-391v-1904h387z" />
    <glyph glyph-name="y" unicode="\" horiz-adv-x="569" 
d="M461 -184h114l-481 1697h-114z" />
    <glyph glyph-name="z" unicode="]" horiz-adv-x="682" 
d="M496 1513h-387v-102h256v-1700h-261v-102h392v1904z" />
    <glyph glyph-name="braceleft" unicode="^" horiz-adv-x="1352" 
d="M268 502l404 802v0l411 -802h117l-473 927h-107l-471 -927h119z" />
    <glyph glyph-name="bar" unicode="_" horiz-adv-x="1024" 
d="M0 -154v-102h1024v102h-1024z" />
    <glyph glyph-name="braceright" unicode="`" horiz-adv-x="682" 
d="M375 1175h104l-227 285h-160z" />
    <glyph glyph-name="asciitilde" unicode="a" 
d="M842 557v-166q-4 -160 -119 -233q-115 -76 -268 -76q-90 0 -158 49q-70 47 -72 141q4 209 299 226q80 4 160 18q80 12 158 41v0zM465 596q-371 -51 -371 -320q2 -153 109 -227q102 -78 245 -78q236 2 396 176v0q2 -55 20 -100q19 -45 78 -57q27 -6 55 -6q29 0 58 10
q26 6 39 10v96v0q-76 -26 -103 -6q-29 19 -26 88v578q-3 182 -111 258q-109 71 -274 71q-177 0 -297 -79q-121 -84 -140 -271h125q21 137 101 191q82 51 208 49q144 -2 205 -60q60 -59 60 -155q0 -29 -6 -62q-9 -32 -39 -49q-33 -12 -78 -22q-47 -8 -84 -13z" />
    <glyph glyph-name="Adieresis" unicode="b" horiz-adv-x="1251" 
d="M285 534q0 187 96 314q94 127 262 131q190 -2 283 -139q90 -138 79 -342q-4 -201 -102 -306q-100 -110 -260 -110q-174 2 -264 131q-94 127 -94 321v0zM285 186h4q59 -104 162 -157q102 -56 206 -58q256 4 371 162q109 156 109 395q0 232 -115 394q-117 163 -358 167
q-113 0 -216 -49q-102 -51 -163 -149v0v583h-123v-1474h123v186z" />
    <glyph glyph-name="Aring" unicode="c" 
d="M1024 727q-66 365 -440 362q-238 -4 -361 -167q-127 -164 -127 -394q0 -239 119 -395q119 -158 369 -162q200 2 313 111q113 106 143 285h-131q-47 -281 -325 -285q-189 4 -273 141q-84 133 -84 305q-2 174 86 310q84 137 271 141q247 -4 315 -252h125z" />
    <glyph glyph-name="Ccedilla" unicode="d" horiz-adv-x="1251" 
d="M967 534q0 -194 -91 -321q-92 -129 -268 -131q-157 0 -256 110q-100 105 -106 306q-6 204 84 342q88 137 278 139q170 -4 264 -131q95 -127 95 -314v0zM967 891v0q-62 98 -162 149q-101 49 -217 49q-242 -4 -357 -167q-116 -162 -116 -394q-2 -239 112 -395
q115 -158 367 -162q106 2 211 58q102 53 157 157h5v-186h122v1474h-122v-583z" />
    <glyph glyph-name="Eacute" unicode="e" 
d="M223 604q19 156 107 264q88 109 250 111q165 -2 251 -109q84 -104 84 -266h-692zM1046 502q-14 583 -466 587q-230 -4 -357 -163q-131 -160 -131 -400q-2 -239 117 -393q119 -158 371 -162q200 2 309 103q106 98 149 252h-137q-68 -242 -321 -244q-177 2 -267 125
q-90 119 -90 295h823z" />
    <glyph glyph-name="Ntilde" unicode="f" horiz-adv-x="569" 
d="M199 958v-958h123v958h204v103h-204v131q-3 78 18 139q20 59 113 62q34 0 73 -11v113q-47 8 -102 8q-232 -6 -225 -274v-168h-158v-103h158z" />
    <glyph glyph-name="Odieresis" unicode="g" horiz-adv-x="1251" 
d="M967 526q0 -182 -95 -311q-94 -131 -264 -133q-190 2 -278 143q-90 133 -84 338q6 201 106 309q99 107 256 107q176 -2 268 -129q91 -127 91 -324v0zM967 874h-5q-55 107 -157 162q-105 53 -211 53q-252 -2 -367 -159q-114 -156 -112 -398q0 -227 116 -389
q115 -168 357 -172q116 0 217 54q100 49 162 145v0q4 -90 -7 -178q-12 -86 -51 -158t-114 -112q-76 -43 -203 -46q-111 0 -199 39t-119 156h-131q4 -47 31 -98q27 -54 82 -101q104 -102 336 -106q297 4 401 164q101 153 96 372v959h-122v-187z" />
    <glyph glyph-name="Udieresis" unicode="h" 
d="M270 0v571q-2 105 27 201q33 86 106 145q74 60 189 62q278 0 274 -287v-692h123v694q0 68 -6 129q-8 60 -47 115q-121 156 -324 151q-108 0 -188 -47q-82 -47 -154 -129v0v561h-123v-1474h123z" />
    <glyph glyph-name="aacute" unicode="i" horiz-adv-x="455" 
d="M289 0v1061h-123v-1061h123zM295 1292v182h-135v-182h135z" />
    <glyph glyph-name="agrave" unicode="j" horiz-adv-x="455" 
d="M180 1061v-1219q2 -82 -31 -118q-34 -37 -139 -25v-109q41 -8 80 -8q74 0 117 19q43 18 63 53q35 70 33 205v1202h-123zM309 1474h-135v-182h135v182z" />
    <glyph glyph-name="acircumflex" unicode="k" horiz-adv-x="1024" 
d="M262 0v401l201 191v0l397 -592h137l-444 678l397 383h-168l-520 -504v0v917h-123v-1474h123z" />
    <glyph glyph-name="adieresis" unicode="l" horiz-adv-x="455" 
d="M289 0v1474h-123v-1474h123z" />
    <glyph glyph-name="atilde" unicode="m" horiz-adv-x="1706" 
d="M254 571q0 72 16 152q15 80 54 135q98 121 239 121q131 0 180 -66q47 -65 47 -180v-733h123v571q0 72 17 152q14 80 53 135q98 121 240 121q131 0 180 -66q47 -65 47 -180v-733h123v670q0 80 -10 157q-13 74 -46 133q-32 60 -98 95q-65 34 -176 34q-233 0 -346 -204v0
q-31 88 -98 145q-68 57 -213 59q-219 -2 -328 -188h-4v160h-123v-1061h123v571z" />
    <glyph glyph-name="aring" unicode="n" 
d="M270 571q-2 105 27 201q33 86 106 145q74 60 189 62q278 0 274 -287v-692h123v694q0 68 -6 129q-8 60 -47 115q-121 156 -324 151q-108 0 -188 -47q-82 -47 -154 -129v0v148h-123v-1061h123v571z" />
    <glyph glyph-name="ccedilla" unicode="o" 
d="M569 -29q228 2 359 156q131 147 133 403q0 240 -121 398q-123 157 -371 161q-245 -4 -368 -161q-123 -158 -123 -398q2 -276 145 -415q137 -142 346 -144v0zM930 530q0 -176 -82 -309q-86 -137 -279 -139q-176 2 -266 127q-94 121 -94 321q0 179 84 312t276 137
q195 -2 279 -129t82 -320v0z" />
    <glyph glyph-name="eacute" unicode="p" horiz-adv-x="1251" 
d="M285 526q0 197 94 324q90 127 264 129q160 0 260 -107q98 -108 102 -309q11 -205 -79 -338q-93 -141 -283 -143q-168 2 -262 133q-96 129 -96 311v0zM285 170v0q61 -96 163 -145q103 -54 216 -54q241 4 358 172q115 162 115 389q0 242 -109 398q-115 157 -371 159
q-104 0 -206 -53q-103 -55 -162 -162h-4v187h-123v-1479h123v588z" />
    <glyph glyph-name="egrave" unicode="q" horiz-adv-x="1251" 
d="M967 534q0 -194 -91 -321q-92 -129 -268 -131q-157 0 -256 110q-100 105 -106 306q-6 204 84 342q88 137 278 139q170 -4 264 -131q95 -127 95 -314v0zM967 874h-5q-55 107 -157 162q-105 53 -211 53q-252 -2 -367 -159q-114 -156 -112 -398q0 -227 116 -389
q115 -168 357 -172q116 0 217 54q100 49 162 145v0v-588h122v1479h-122v-187z" />
    <glyph glyph-name="ecircumflex" unicode="r" horiz-adv-x="682" 
d="M276 520q-2 184 72 311q76 125 279 125v133q-131 0 -213 -49q-82 -51 -133 -178h-5v199h-122v-1061h122v520z" />
    <glyph glyph-name="edieresis" unicode="s" horiz-adv-x="1024" 
d="M94 332q10 -154 113 -254q102 -105 291 -107q190 0 311 80q119 78 121 230q0 77 -27 129q-29 53 -78 86q-47 34 -108 55q-62 20 -127 35q-131 26 -232 69q-49 23 -77 56q-31 34 -31 86q2 176 239 182q117 0 195 -49q76 -51 92 -174h125q-55 340 -410 333
q-176 -2 -272 -84q-100 -83 -100 -219q0 -75 30 -127q29 -51 78 -84q49 -30 111 -49q31 -10 61 -16q29 -8 60 -19q65 -12 127 -24q30 -6 59 -16q29 -9 49 -21q49 -20 78 -57q27 -37 27 -94q0 -80 -64 -136q-63 -59 -198 -61q-269 -6 -318 250h-125z" />
    <glyph glyph-name="iacute" unicode="t" horiz-adv-x="569" 
d="M520 96q-49 -14 -100 -14q-74 0 -90 37q-19 37 -17 112v727h199v103h-199v295h-123v-295h-149v-103h149v-776q0 -114 52 -164q47 -47 137 -47q47 2 84 13q35 8 57 12v100z" />
    <glyph glyph-name="igrave" unicode="u" 
d="M866 483q0 -178 -84 -286q-84 -113 -239 -115q-277 2 -273 283v696h-123v-699q-2 -167 84 -276q84 -113 293 -115q70 2 125 21q53 16 92 41q41 28 72 59q31 29 53 55v0v-147h123v1061h-123v-578z" />
    <glyph glyph-name="icircumflex" unicode="v" horiz-adv-x="1024" 
d="M440 0h137l412 1061h-133l-344 -909v0l-344 909h-133z" />
    <glyph glyph-name="idieresis" unicode="w" horiz-adv-x="1479" 
d="M1044 164l-233 897h-137l-246 -905v0l-274 905h-123l323 -1061h148l235 891h4l232 -891h131l344 1061h-125l-279 -897v0z" />
    <glyph glyph-name="ntilde" unicode="x" horiz-adv-x="1024" 
d="M516 459l322 -459h147l-397 549l383 512h-156l-301 -422v0l-293 422h-151l374 -512l-407 -549h149l330 459v0z" />
    <glyph glyph-name="oacute" unicode="y" horiz-adv-x="1024" 
d="M139 -403q51 -13 117 -15q125 2 197 119q69 113 139 313l395 1047h-133l-340 -912v0l-340 912h-137l411 -1069q-14 -35 -30 -82q-15 -51 -37 -98q-21 -47 -53 -78q-33 -33 -86 -35q-54 2 -103 12v-114z" />
    <glyph glyph-name="ograve" unicode="z" horiz-adv-x="1024" 
d="M956 0v102h-731l705 850v109h-815v-103h657l-704 -849v-109h888z" />
    <glyph glyph-name="ocircumflex" unicode="{" horiz-adv-x="682" 
d="M260 809q2 -98 -27 -156q-30 -57 -141 -90v-4q103 -20 137 -80q33 -61 31 -157v-418q-2 -156 66 -225q67 -74 245 -70v4q-184 49 -180 248v422q0 116 -33 186q-34 68 -135 90v4q105 31 139 111q29 78 29 194v393q-2 191 166 248q-172 8 -235 -69q-64 -78 -62 -258v-373z
" />
    <glyph glyph-name="odieresis" unicode="|" horiz-adv-x="455" 
d="M166 1536v-2048h123v2048h-123z" />
    <glyph glyph-name="otilde" unicode="}" horiz-adv-x="682" 
d="M416 1227q2 155 -64 229q-69 70 -248 66v-5q183 -49 181 -247v-422q-2 -115 34 -182q35 -70 134 -95v-4q-105 -28 -138 -106q-32 -78 -30 -199v-393q0 -190 -166 -248q174 -6 237 72q62 76 60 256v373q-2 100 28 159q31 58 140 86v4q-101 23 -136 84q-34 60 -32 154v418z
" />
    <glyph glyph-name="uacute" unicode="~" horiz-adv-x="1352" 
d="M453 664q-54 0 -97 -19q-43 -22 -77 -53q-33 -31 -62 -68t-53 -71l67 -97v0q19 31 41 66q23 35 50 63q28 29 61 47q31 17 70 17q47 0 90 -21q43 -20 82 -41q57 -22 137 -53q80 -33 139 -33q104 2 174 72q70 66 113 152l-82 69v0q-27 -59 -80 -114q-25 -27 -55 -43
q-31 -21 -68 -21q-39 0 -92 25q-55 20 -119 49q-59 28 -121 51q-61 23 -118 23v0z" />
    <glyph glyph-name="uni00A0" unicode="&#xa0;" horiz-adv-x="569" 
 />
    <glyph glyph-name="fl" unicode="&#xa1;" horiz-adv-x="682" 
d="M295 721l-29 -645v-459h150v459l-29 645h-92zM416 911v178h-150v-178h150z" />
    <glyph glyph-name="questiondown" unicode="&#xa2;" 
d="M391 139v0q-86 62 -125 166q-43 105 -43 223q-2 174 86 310q84 137 271 141q43 0 84 -10zM752 934v0q106 -66 143 -207h125q-39 246 -230 324l91 274h-99l-82 -246q-55 10 -120 10q-213 0 -347 -143q-139 -145 -141 -418q0 -174 64 -309q65 -133 196 -201l-100 -307h96
l92 277q64 -17 140 -17q202 4 319 121q115 113 137 275h-131q-47 -281 -325 -285q-56 0 -105 14z" />
    <glyph glyph-name="exclamdown" unicode="&#xa3;" 
d="M377 747q-19 41 -41 80q-25 37 -47 74q-47 72 -49 162q2 137 102 205q98 65 225 65q303 -4 328 -334h135q0 209 -127 328q-131 115 -338 117q-227 -2 -340 -105q-116 -104 -116 -270q2 -121 43 -193q18 -36 36 -67q17 -31 29 -62h-166v-86h203q43 -86 43 -180
q-2 -114 -64 -207q-61 -96 -153 -161l72 -119q53 24 104 47q53 20 111 20q57 0 108 -12q49 -12 92 -33q47 -16 86 -28q39 -17 76 -17q119 0 197 31q75 33 159 113l-69 104v0q-45 -47 -97 -80q-53 -37 -124 -37q-97 2 -170 43q-39 19 -86 31q-50 12 -119 12q-49 0 -96 -16
q-45 -16 -86 -39l-5 4q80 78 138 176q57 97 59 209q-2 72 -22 139h309v86h-340z" />
    <glyph glyph-name="breve" unicode="&#xa4;" 
d="M66 225l106 -108v0l90 88v0q131 -101 297 -103q178 0 317 103v0l91 -88v0l106 108l-88 86q96 131 98 293q2 178 -98 320l88 88l-106 108v0l-91 -88v0q-133 98 -299 100q-174 0 -315 -100v0l-90 88v0l-106 -108l88 -88q-101 -138 -99 -310q0 -166 99 -303zM577 985
q154 0 256 -106q103 -107 105 -259q-2 -159 -109 -264q-106 -106 -264 -108q-151 2 -254 110q-106 105 -108 256q2 164 106 269q105 102 268 102v0z" />
    <glyph glyph-name="quotedblleft" unicode="&#xa5;" 
d="M567 764l-403 710h-156l350 -585h-227v-111h295l78 -135v-86h-373v-111h373v-446h131v446h373v111h-373v86l78 135h295v111h-228l350 585h-149l-414 -710v0z" />
    <glyph glyph-name="glyph159" unicode="&#xa6;" horiz-adv-x="455" 
d="M166 1382v-716h123v716h-123zM166 358v-716h123v716h-123z" />
    <glyph glyph-name="logicalnot" unicode="&#xa7;" 
d="M389 915l354 -217q66 -34 125 -90q60 -55 62 -137q-2 -82 -56 -137q-55 -58 -127 -94v0l-364 235q-61 39 -115 96q-24 29 -41 62q-18 33 -18 69q0 78 51 129q47 52 129 84v0zM575 209q80 -45 152 -113q35 -33 55 -73q21 -41 21 -91q-2 -94 -70 -143q-67 -49 -158 -49
q-258 4 -258 262h-125q25 -364 381 -373q152 2 254 82q105 80 107 236q-2 92 -47 151q-19 29 -39 47q-19 19 -33 27q47 31 86 64q41 32 72 69q65 72 67 186q-4 134 -106 226q-49 47 -111 86q-61 39 -131 76q-65 36 -127 73q-65 37 -114 76q-50 39 -78 82q-33 43 -33 94
q2 103 68 152q63 47 161 47q254 0 254 -256h111q-4 358 -354 366q-183 -2 -275 -86q-96 -86 -96 -211q0 -71 33 -127q28 -53 75 -108q-92 -37 -153 -113q-66 -78 -66 -182q0 -102 58 -174q53 -76 151 -135z" />
    <glyph glyph-name="nonbreakingspace" unicode="&#xa8;" horiz-adv-x="682" 
d="M123 1196h133v209h-133v-209zM448 1196h134v209h-134v-209z" />
    <glyph glyph-name="guillemotleft" unicode="&#xa9;" horiz-adv-x="1638" 
d="M821 -39q332 4 549 229q221 218 225 549q-4 328 -225 549q-217 221 -549 225q-332 -4 -549 -225q-225 -221 -229 -549q4 -331 229 -549q217 -225 549 -229v0zM821 63q-289 3 -469 197q-184 188 -186 479q2 289 186 477q180 191 469 195q289 -4 469 -195
q180 -188 182 -477q-2 -291 -182 -479q-180 -194 -469 -197v0zM1104 598q-15 -96 -84 -154q-70 -57 -164 -57q-152 2 -229 113q-82 104 -82 247q0 148 78 250q75 101 229 103q94 0 164 -54q69 -55 88 -149h110q-22 143 -120 217q-101 76 -244 76q-199 -2 -309 -125
q-115 -123 -115 -320q0 -194 119 -317q116 -129 311 -131q139 0 242 82q100 80 116 219h-110z" />
    <glyph glyph-name="Ydieresis" unicode="&#xaa;" horiz-adv-x="684" 
d="M502 1094q-2 -95 -78 -142q-74 -49 -174 -49q-58 0 -105 31t-49 88q0 65 56 98q53 31 143 37q53 4 104 12q54 6 103 25v-100zM256 1216q-240 -30 -240 -192q2 -92 72 -135q66 -47 158 -47q153 0 256 106v0q2 -35 16 -59q10 -29 49 -37q39 -2 62 0q20 4 37 10v57
q-48 -16 -66 -4q-20 13 -18 54v346q-2 110 -72 155q-70 43 -178 43q-117 0 -193 -47q-80 -51 -92 -164h82q29 154 201 150q92 -2 133 -37q39 -39 39 -98q0 -17 -2 -37q-6 -19 -27 -29q-51 -18 -106 -20z" />
    <glyph glyph-name="Acircumflex" unicode="&#xab;" 
d="M608 467l299 -227v0v127l-213 163l213 168v129v0l-299 -231v-129zM231 467l299 -227v0v127l-213 163l213 168v129v0l-299 -231v-129z" />
    <glyph glyph-name="daggerdbl" unicode="&#xac;" horiz-adv-x="1352" 
d="M1057 229h131v545h-1024v-123h893v-422z" />
    <glyph glyph-name="uni00AD" unicode="&#xad;" horiz-adv-x="682" 
d="M82 596v-127h518v127h-518z" />
    <glyph glyph-name="Delta" unicode="&#xae;" horiz-adv-x="1638" 
d="M821 -39q332 4 549 229q221 218 225 549q-4 328 -225 549q-217 221 -549 225q-332 -4 -549 -225q-225 -221 -229 -549q4 -331 229 -549q217 -225 549 -229v0zM821 63q-289 3 -469 197q-184 188 -186 479q2 289 186 477q180 191 469 195q289 -4 469 -195
q180 -188 182 -477q-2 -291 -182 -479q-180 -194 -469 -197v0zM946 704q119 3 195 60q75 53 77 178q0 109 -65 170q-72 59 -242 59h-379v-866h107v399h194l248 -399h127zM639 788v308h248q84 2 149 -25q66 -29 68 -127q0 -63 -29 -96q-29 -35 -76 -47q-45 -11 -98 -11
q-53 -2 -100 -2h-162z" />
    <glyph glyph-name="Gbreve" unicode="&#xaf;" horiz-adv-x="682" 
d="M47 1253h606v92h-606v-92z" />
    <glyph glyph-name="oslash" unicode="&#xb0;" horiz-adv-x="819" 
d="M717 1137q-2 131 -90 217q-86 88 -217 90q-129 -2 -218 -90q-86 -86 -90 -217q2 -129 93 -215q86 -91 215 -93q131 2 217 93q88 86 90 215v0zM635 1137q-2 -95 -66 -158q-63 -66 -159 -68q-95 2 -158 68q-66 63 -68 158q2 96 66 159q63 64 158 66q98 -2 161 -66
q64 -63 66 -159v0z" />
    <glyph glyph-name="oe" unicode="&#xb1;" horiz-adv-x="1352" 
d="M614 676h-450v-123h450v-348h123v348h451v123h-451v348h-123v-348zM164 0h1024v123h-1024v-123z" />
    <glyph glyph-name="uni00B2" unicode="&#xb2;" horiz-adv-x="682" 
d="M147 1229q-2 92 56 155q57 62 149 64q90 0 148 -45q57 -47 59 -133q0 -74 -41 -119q-43 -47 -113 -84q-69 -35 -147 -84q-80 -47 -156 -125q-43 -45 -57 -98q-14 -51 -14 -113h612v66h-522q6 63 41 104q35 43 82 72q53 37 123 71q69 33 135 72q65 43 106 100
q41 58 43 142q0 104 -71 170q-74 67 -218 69q-139 0 -221 -75q-84 -78 -84 -209h90z" />
    <glyph glyph-name="uni00B3" unicode="&#xb3;" horiz-adv-x="682" 
d="M272 1065q127 10 213 -29q82 -39 88 -145q4 -78 -61 -133q-66 -60 -170 -62q-104 0 -168 54q-65 49 -65 147h-86q14 -147 94 -207q78 -61 239 -59q148 6 226 80q77 73 77 182q2 63 -30 123q-35 61 -135 90q133 57 133 194q-2 107 -78 162q-76 51 -191 51q-57 0 -110 -10
q-56 -10 -103 -47q-92 -80 -90 -195h84q0 84 58 136q55 51 145 51q84 0 141 -35q56 -39 58 -119q-2 -96 -74 -131q-72 -37 -195 -35v-63z" />
    <glyph glyph-name="ellipsis" unicode="&#xb4;" horiz-adv-x="682" 
d="M328 1175l280 285h-157l-228 -285h105z" />
    <glyph glyph-name="quotedblright" unicode="&#xb5;" 
d="M866 483q0 -178 -84 -286q-84 -113 -239 -115q-277 2 -273 283v696h-123v-1479h123v455v0q41 -25 105 -45q63 -19 149 -21q70 2 125 21q53 16 92 41q41 28 72 59q31 29 53 55v0v-147h123v1061h-123v-578z" />
    <glyph glyph-name="florin" unicode="&#xb6;" horiz-adv-x="1331" 
d="M528 -299h123v1636h262v-1636h123v1773h-444q-451 -4 -457 -397q2 -162 119 -272q113 -113 274 -117v-987z" />
    <glyph glyph-name="scedilla" unicode="&#xb8;" horiz-adv-x="682" 
d="M111 -385q90 -37 186 -39q102 0 174 51q70 49 51 158q-6 41 -47 74q-41 32 -110 32q-37 0 -74 -12l96 121h-80l-123 -168l31 -27q45 17 90 17q43 0 72 -19q28 -18 31 -61q-3 -51 -43 -72q-43 -24 -93 -24q-67 2 -131 30z" />
    <glyph glyph-name="uni00B9" unicode="&#xb9;" horiz-adv-x="682" 
d="M420 647h86v866h-68q-20 -106 -86 -137q-65 -31 -174 -33v-53h242v-643z" />
    <glyph glyph-name="fraction" unicode="&#xba;" horiz-adv-x="684" 
d="M342 842q145 0 233 94q84 88 86 242q0 145 -77 239q-80 94 -242 96q-160 -2 -240 -96q-79 -94 -79 -239q2 -166 94 -248q90 -86 225 -88v0zM102 1178q0 108 58 190q57 82 182 84q127 -2 184 -80q56 -78 56 -194q0 -105 -56 -187q-57 -86 -184 -88q-115 2 -176 80
q-64 76 -64 195v0z" />
    <glyph glyph-name="Ecircumflex" unicode="&#xbb;" 
d="M907 600l-299 227v0v-127l213 -163l-213 -168v-129v0l299 231v129zM530 600l-299 227v0v-127l213 -163l-213 -168v-129v0l299 231v129z" />
    <glyph glyph-name="glyph154" unicode="&#xbc;" horiz-adv-x="1708" 
d="M1411 0h86v213h129v68h-129v577h-78l-436 -577v-68h428v-213zM1411 739v0v-458h-344zM448 -29l910 1473h-105l-909 -1473h104zM324 647h86v866h-68q-20 -106 -86 -137t-174 -33v-53h242v-643z" />
    <glyph glyph-name="glyph161" unicode="&#xbd;" horiz-adv-x="1708" 
d="M367 -29l909 1473h-105l-909 -1473h105zM324 647h86v866h-68q-20 -106 -86 -137t-174 -33v-53h242v-643zM1122 582q-2 92 56 155q57 62 149 64q90 0 147 -45q58 -47 60 -133q0 -74 -41 -119q-43 -47 -113 -84q-69 -35 -147 -84q-80 -47 -156 -125q-43 -45 -57 -98
q-15 -52 -15 -113h613v66h-522q6 63 41 104q34 43 81 72q54 37 123 71q70 33 136 72q65 43 106 100q41 58 43 142q0 104 -72 170q-73 67 -217 69q-139 0 -221 -76q-84 -77 -84 -208h90z" />
    <glyph glyph-name="glyph153" unicode="&#xbe;" horiz-adv-x="1708" 
d="M1411 739v0v-458h-344zM1411 0h86v213h129v68h-129v577h-78l-436 -577v-68h428v-213zM332 1065q127 10 213 -29q82 -39 88 -145q4 -78 -62 -133q-65 -60 -170 -62q-104 0 -168 54q-65 49 -65 147h-86q14 -147 94 -207q78 -61 240 -59q147 6 225 80q78 73 78 182
q2 63 -31 123q-35 61 -135 90q133 57 133 194q-2 107 -78 162q-76 51 -190 51q-58 0 -111 -10q-55 -10 -102 -47q-92 -80 -90 -195h84q0 84 57 136q55 51 145 51q84 0 142 -35q55 -39 57 -119q-2 -96 -74 -131q-71 -37 -194 -35v-63zM530 -29l910 1473h-105l-909 -1473h104z
" />
    <glyph glyph-name="fi" unicode="&#xbf;" horiz-adv-x="1024" 
d="M821 33q4 -148 -78 -244q-84 -100 -235 -102q-152 2 -234 78q-86 73 -86 186q0 57 29 108q27 50 68 97q43 47 92 92q47 43 92 88q78 84 98 178q13 47 15 98q4 49 0 105h-119q0 -62 -2 -125q-8 -62 -41 -119q-45 -70 -105 -123q-61 -57 -120 -112q-58 -54 -97 -121
q-41 -68 -41 -156q6 -375 447 -385q205 2 329 127q125 123 113 330h-125zM444 1089v-180h150v180h-150z" />
    <glyph glyph-name="Egrave" unicode="&#xc0;" horiz-adv-x="1366" 
d="M174 0l174 463h672l170 -463h143l-565 1474h-158l-579 -1474h143zM684 1356v0l289 -774h-578zM729 1589h104l-227 285h-160z" />
    <glyph glyph-name="zcaron" unicode="&#xc1;" horiz-adv-x="1366" 
d="M174 0l174 463h672l170 -463h143l-565 1474h-158l-579 -1474h143zM684 1356v0l289 -774h-578zM686 1589l280 285h-157l-228 -285h105z" />
    <glyph glyph-name="scaron" unicode="&#xc2;" horiz-adv-x="1366" 
d="M174 0l174 463h672l170 -463h143l-565 1474h-158l-579 -1474h143zM684 1356v0l289 -774h-578zM703 1798v0l168 -209h133l-231 285h-137l-234 -285h133z" />
    <glyph glyph-name="Iacute" unicode="&#xc3;" horiz-adv-x="1366" 
d="M174 0l174 463h672l170 -463h143l-565 1474h-158l-579 -1474h143zM684 1356v0l289 -774h-578zM459 1614q13 41 35 70q21 28 66 30q69 -4 143 -45q37 -16 78 -30q37 -17 78 -17q57 0 94 37q37 35 57 86q13 37 17 78h-78q-6 -39 -25 -68q-20 -34 -65 -34q-53 2 -123 38
q-35 17 -66 33q-32 12 -63 17q-53 12 -100 -9q-48 -22 -80 -65q-33 -47 -41 -121h73z" />
    <glyph glyph-name="ucircumflex" unicode="&#xc4;" horiz-adv-x="1366" 
d="M174 0l174 463h672l170 -463h143l-565 1474h-158l-579 -1474h143zM684 1356v0l289 -774h-578zM478 1610h133v209h-133v-209zM803 1610h134v209h-134v-209z" />
    <glyph glyph-name="udieresis" unicode="&#xc5;" horiz-adv-x="1366" 
d="M174 0l174 463h672l170 -463h143l-565 1474h-158l-579 -1474h143zM684 1356v0l289 -774h-578zM740 1598q86 2 143 61q58 57 60 141q-2 86 -60 146q-57 57 -143 59q-82 -2 -141 -59q-64 -60 -64 -146q2 -84 62 -141q57 -59 143 -61v0zM740 1665q-55 0 -94 41
q-43 39 -43 94q0 58 43 99q39 39 94 39q57 -2 96 -41t39 -97q0 -53 -39 -92q-39 -43 -96 -43v0z" />
    <glyph glyph-name="Atilde" unicode="&#xc6;" horiz-adv-x="2048" 
d="M149 0l197 463h621v-463h999v119h-860v585h760v119h-760v533h835v118h-1290l-641 -1474h139zM733 1356h234v-774h-564z" />
    <glyph glyph-name="dagger" unicode="&#xc7;" horiz-adv-x="1479" 
d="M1356 1046q-95 465 -572 467q-299 2 -489 -176q-195 -180 -197 -600q-2 -309 138 -526q137 -217 444 -248l-96 -131l30 -27q45 17 90 17q43 0 72 -19q29 -18 31 -61q-2 -51 -43 -72q-43 -24 -92 -24q-68 2 -131 30l-31 -61q90 -37 186 -39q103 0 174 51q70 49 52 158
q-7 41 -48 74q-41 32 -110 32q-37 0 -74 -12l68 84q282 12 426 162q145 147 188 360h-145q-41 -178 -158 -288q-117 -115 -309 -117q-295 4 -410 209q-59 94 -86 213q-26 114 -26 239q-2 271 122 459q121 190 387 195q379 6 465 -349h144z" />
    <glyph glyph-name="Eth" unicode="&#xc8;" horiz-adv-x="1251" 
d="M1167 0v119h-862v585h760v119h-760v533h842v118h-981v-1474h1001zM667 1589h104l-227 285h-160z" />
    <glyph glyph-name="degree" unicode="&#xc9;" horiz-adv-x="1251" 
d="M1167 0v119h-862v585h760v119h-760v533h842v118h-981v-1474h1001zM624 1589l280 285h-157l-228 -285h105z" />
    <glyph glyph-name="Zcaron" unicode="&#xca;" horiz-adv-x="1251" 
d="M1167 0v119h-862v585h760v119h-760v533h842v118h-981v-1474h1001zM640 1798v0l168 -209h133l-231 285h-137l-234 -285h133z" />
    <glyph glyph-name="brokenbar" unicode="&#xcb;" horiz-adv-x="1251" 
d="M1167 0v119h-862v585h760v119h-760v533h842v118h-981v-1474h1001zM416 1610h133v209h-133v-209zM741 1610h134v209h-134v-209z" />
    <glyph glyph-name="Thorn" unicode="&#xcc;" horiz-adv-x="569" 
d="M354 0v1474h-139v-1474h139zM315 1589h104l-227 285h-160z" />
    <glyph glyph-name="eth" unicode="&#xcd;" horiz-adv-x="569" 
d="M354 0v1474h-139v-1474h139zM229 1589l280 285h-157l-228 -285h105z" />
    <glyph glyph-name="Yacute" unicode="&#xce;" horiz-adv-x="569" 
d="M354 0v1474h-139v-1474h139zM246 1798v0l168 -209h133l-231 285h-137l-234 -285h133z" />
    <glyph glyph-name="yacute" unicode="&#xcf;" horiz-adv-x="569" 
d="M354 0v1474h-139v-1474h139zM22 1610h133v209h-133v-209zM347 1610h134v209h-134v-209z" />
    <glyph glyph-name="glyph160" unicode="&#xd0;" horiz-adv-x="1479" 
d="M305 1356h334q94 0 184 -9q88 -10 154 -47q153 -88 207 -239q49 -154 47 -322q2 -155 -49 -313q-52 -156 -197 -240q-82 -41 -166 -55q-86 -14 -180 -12h-334v604h330v119h-330v514zM166 842h-146v-119h146v-723h504q149 0 284 35t238 145q100 115 141 264q37 148 37 295
q2 156 -49 334q-51 180 -197 291q-100 76 -215 94q-116 16 -239 16h-504v-632z" />
    <glyph glyph-name="cent" unicode="&#xd1;" horiz-adv-x="1479" 
d="M1153 0h162v1474h-140v-1288h-4l-852 1288h-157v-1474h139v1286h4zM513 1614q13 41 35 70q21 28 66 30q69 -4 143 -45q37 -16 78 -30q37 -17 78 -17q57 0 94 37q37 35 57 86q13 37 17 78h-78q-6 -39 -25 -68q-20 -34 -65 -34q-53 2 -123 38q-35 17 -66 33q-32 12 -63 17
q-53 12 -100 -9q-48 -22 -80 -65q-33 -47 -41 -121h73z" />
    <glyph glyph-name="onesuperior" unicode="&#xd2;" horiz-adv-x="1593" 
d="M109 735q0 -323 174 -545q172 -225 512 -229q342 4 516 229q172 222 172 545q0 334 -172 553q-174 221 -523 225q-329 -4 -503 -227q-176 -219 -176 -551v0zM797 80q-287 4 -418 199q-68 90 -98 208q-33 119 -33 248q0 268 133 461q131 194 412 199q540 -13 550 -660
q0 -266 -129 -456q-131 -195 -417 -199v0zM845 1589h104l-227 285h-160z" />
    <glyph glyph-name="thorn" unicode="&#xd3;" horiz-adv-x="1593" 
d="M109 735q0 -323 174 -545q172 -225 512 -229q342 4 516 229q172 222 172 545q0 334 -172 553q-174 221 -523 225q-329 -4 -503 -227q-176 -219 -176 -551v0zM797 80q-287 4 -418 199q-68 90 -98 208q-33 119 -33 248q0 268 133 461q131 194 412 199q540 -13 550 -660
q0 -266 -129 -456q-131 -195 -417 -199v0zM802 1589l280 285h-157l-228 -285h105z" />
    <glyph glyph-name="minus" unicode="&#xd4;" horiz-adv-x="1593" 
d="M109 735q0 -323 174 -545q172 -225 512 -229q342 4 516 229q172 222 172 545q0 334 -172 553q-174 221 -523 225q-329 -4 -503 -227q-176 -219 -176 -551v0zM797 80q-287 4 -418 199q-68 90 -98 208q-33 119 -33 248q0 268 133 461q131 194 412 199q540 -13 550 -660
q0 -266 -129 -456q-131 -195 -417 -199v0zM819 1798v0l168 -209h133l-231 285h-137l-234 -285h133z" />
    <glyph glyph-name="Icircumflex" unicode="&#xd5;" horiz-adv-x="1593" 
d="M109 735q0 -323 174 -545q172 -225 512 -229q342 4 516 229q172 222 172 545q0 334 -172 553q-174 221 -523 225q-329 -4 -503 -227q-176 -219 -176 -551v0zM797 80q-287 4 -418 199q-68 90 -98 208q-33 119 -33 248q0 268 133 461q131 194 412 199q540 -13 550 -660
q0 -266 -129 -456q-131 -195 -417 -199v0zM575 1614q13 41 35 70q21 28 66 30q69 -4 143 -45q37 -16 78 -30q37 -17 78 -17q57 0 94 37q37 35 57 86q13 37 17 78h-78q-6 -39 -25 -68q-20 -34 -65 -34q-53 2 -123 38q-35 17 -66 33q-32 12 -63 17q-53 12 -100 -9
q-48 -22 -80 -65q-33 -47 -41 -121h73z" />
    <glyph glyph-name="sterling" unicode="&#xd6;" horiz-adv-x="1593" 
d="M109 735q0 -323 174 -545q172 -225 512 -229q342 4 516 229q172 222 172 545q0 334 -172 553q-174 221 -523 225q-329 -4 -503 -227q-176 -219 -176 -551v0zM797 80q-287 4 -418 199q-68 90 -98 208q-33 119 -33 248q0 268 133 461q131 194 412 199q540 -13 550 -660
q0 -266 -129 -456q-131 -195 -417 -199v0zM595 1610h133v209h-133v-209zM920 1610h134v209h-134v-209z" />
    <glyph glyph-name="multiply" unicode="&#xd7;" horiz-adv-x="1352" 
d="M246 12l432 430v0l430 -430v0l76 74l-430 432l430 432l-76 74v0l-430 -430v0l-432 430v0l-76 -74l432 -432l-432 -432l76 -74v0z" />
    <glyph glyph-name="Otilde" unicode="&#xd8;" horiz-adv-x="1593" 
d="M356 301v0q-114 184 -114 434q0 264 133 459q131 194 411 201q142 0 236 -45q92 -46 149 -113zM1237 1147v0q100 -187 100 -412q0 -266 -129 -456q-131 -195 -418 -199q-237 2 -366 139zM1427 1530l-170 -195v0q-194 180 -475 178q-325 -4 -499 -223q-181 -219 -181 -555
q0 -321 166 -534l-182 -207l80 -70v0l174 199v0q170 -160 448 -162q342 4 516 229q173 222 173 545q-9 377 -148 518l178 205l-80 72v0z" />
    <glyph glyph-name="onehalf" unicode="&#xd9;" horiz-adv-x="1479" 
d="M168 555q-2 -586 571 -594q572 6 572 594v919h-140v-878q11 -518 -432 -516q-438 -8 -432 516v878h-139v-919zM784 1589h104l-227 285h-160z" />
    <glyph glyph-name="twosuperior" unicode="&#xda;" horiz-adv-x="1479" 
d="M168 555q-2 -586 571 -594q572 6 572 594v919h-140v-878q11 -518 -432 -516q-438 -8 -432 516v878h-139v-919zM741 1589l280 285h-157l-228 -285h105z" />
    <glyph glyph-name="threesuperior" unicode="&#xdb;" horiz-adv-x="1479" 
d="M168 555q-2 -586 571 -594q572 6 572 594v919h-140v-878q11 -518 -432 -516q-438 -8 -432 516v878h-139v-919zM757 1798v0l168 -209h133l-231 285h-137l-234 -285h133z" />
    <glyph glyph-name="section" unicode="&#xdc;" horiz-adv-x="1479" 
d="M168 555q-2 -586 571 -594q572 6 572 594v919h-140v-878q11 -518 -432 -516q-438 -8 -432 516v878h-139v-919zM531 1610h133v209h-133v-209zM856 1610h134v209h-134v-209z" />
    <glyph glyph-name="glyph203" unicode="&#xdd;" horiz-adv-x="1251" 
d="M618 764l-434 710h-159l526 -841v-633h139v643l535 831h-162l-445 -710v0zM628 1589l280 285h-157l-228 -285h105z" />
    <glyph glyph-name="glyph158" unicode="&#xde;" horiz-adv-x="1251" 
d="M299 0v344h315q215 -4 387 84q174 88 179 328q2 172 -97 290q-51 56 -145 91q-94 30 -240 30h-399v307h-139v-1474h139zM299 463v586h360q383 -3 381 -283q-2 -182 -110 -244q-113 -61 -312 -59h-319z" />
    <glyph glyph-name="approxequal" unicode="&#xdf;" horiz-adv-x="1024" 
d="M432 768q379 6 377 -360q-2 -183 -113 -263q-108 -82 -264 -55v0v-108q33 -11 76 -11q426 4 432 488q0 121 -55 221q-56 102 -172 145q80 58 127 129q45 70 45 168q-2 180 -109 281q-106 100 -287 100q-385 -4 -383 -389v-1114h123v1092q0 69 11 124q8 56 34 95
q27 41 82 61q52 21 140 21q137 -3 198 -76q60 -74 60 -193q-2 -139 -93 -194q-88 -60 -229 -60v-102z" />
    <glyph glyph-name="paragraph" unicode="&#xe0;" 
d="M842 557v-166q-4 -160 -119 -233q-115 -76 -268 -76q-90 0 -158 49q-70 47 -72 141q4 209 299 226q80 4 160 18q80 12 158 41v0zM465 596q-371 -51 -371 -320q2 -153 109 -227q102 -78 245 -78q236 2 396 176v0q2 -55 20 -100q19 -45 78 -57q27 -6 55 -6q29 0 58 10
q26 6 39 10v96v0q-76 -26 -103 -6q-29 19 -26 88v578q-3 182 -111 258q-109 71 -274 71q-177 0 -297 -79q-121 -84 -140 -271h125q21 137 101 191q82 51 208 49q144 -2 205 -60q60 -59 60 -155q0 -29 -6 -62q-9 -32 -39 -49q-33 -12 -78 -22q-47 -8 -84 -13zM611 1175h104
l-227 285h-160z" />
    <glyph glyph-name="bullet" unicode="&#xe1;" 
d="M842 557v-166q-4 -160 -119 -233q-115 -76 -268 -76q-90 0 -158 49q-70 47 -72 141q4 209 299 226q80 4 160 18q80 12 158 41v0zM465 596q-371 -51 -371 -320q2 -153 109 -227q102 -78 245 -78q236 2 396 176v0q2 -55 20 -100q19 -45 78 -57q27 -6 55 -6q29 0 58 10
q26 6 39 10v96v0q-76 -26 -103 -6q-29 19 -26 88v578q-3 182 -111 258q-109 71 -274 71q-177 0 -297 -79q-121 -84 -140 -271h125q21 137 101 191q82 51 208 49q144 -2 205 -60q60 -59 60 -155q0 -29 -6 -62q-9 -32 -39 -49q-33 -12 -78 -22q-47 -8 -84 -13zM568 1175
l280 285h-157l-228 -285h105z" />
    <glyph glyph-name="germandbls" unicode="&#xe2;" 
d="M842 557v-166q-4 -160 -119 -233q-115 -76 -268 -76q-90 0 -158 49q-70 47 -72 141q4 209 299 226q80 4 160 18q80 12 158 41v0zM465 596q-371 -51 -371 -320q2 -153 109 -227q102 -78 245 -78q236 2 396 176v0q2 -55 20 -100q19 -45 78 -57q27 -6 55 -6q29 0 58 10
q26 6 39 10v96v0q-76 -26 -103 -6q-29 19 -26 88v578q-3 182 -111 258q-109 71 -274 71q-177 0 -297 -79q-121 -84 -140 -271h125q21 137 101 191q82 51 208 49q144 -2 205 -60q60 -59 60 -155q0 -29 -6 -62q-9 -32 -39 -49q-33 -12 -78 -22q-47 -8 -84 -13zM584 1384v0
l168 -209h133l-231 285h-137l-234 -285h133z" />
    <glyph glyph-name="copyright" unicode="&#xe3;" 
d="M842 557v-166q-4 -160 -119 -233q-115 -76 -268 -76q-90 0 -158 49q-70 47 -72 141q4 209 299 226q80 4 160 18q80 12 158 41v0zM465 596q-371 -51 -371 -320q2 -153 109 -227q102 -78 245 -78q236 2 396 176v0q2 -55 20 -100q19 -45 78 -57q27 -6 55 -6q29 0 58 10
q26 6 39 10v96v0q-76 -26 -103 -6q-29 19 -26 88v578q-3 182 -111 258q-109 71 -274 71q-177 0 -297 -79q-121 -84 -140 -271h125q21 137 101 191q82 51 208 49q144 -2 205 -60q60 -59 60 -155q0 -29 -6 -62q-9 -32 -39 -49q-33 -12 -78 -22q-47 -8 -84 -13zM340 1200
q13 41 35 70q21 28 66 30q69 -4 143 -45q37 -16 78 -30q37 -17 78 -17q57 0 94 37q37 35 57 86q13 37 17 78h-78q-6 -39 -25 -68q-20 -34 -65 -34q-53 2 -123 38q-35 17 -66 33q-32 12 -63 17q-53 12 -100 -9q-48 -22 -80 -65q-33 -47 -41 -121h73z" />
    <glyph glyph-name="registered" unicode="&#xe4;" 
d="M842 557v-166q-4 -160 -119 -233q-115 -76 -268 -76q-90 0 -158 49q-70 47 -72 141q4 209 299 226q80 4 160 18q80 12 158 41v0zM465 596q-371 -51 -371 -320q2 -153 109 -227q102 -78 245 -78q236 2 396 176v0q2 -55 20 -100q19 -45 78 -57q27 -6 55 -6q29 0 58 10
q26 6 39 10v96v0q-76 -26 -103 -6q-29 19 -26 88v578q-3 182 -111 258q-109 71 -274 71q-177 0 -297 -79q-121 -84 -140 -271h125q21 137 101 191q82 51 208 49q144 -2 205 -60q60 -59 60 -155q0 -29 -6 -62q-9 -32 -39 -49q-33 -12 -78 -22q-47 -8 -84 -13zM360 1196h133
v209h-133v-209zM685 1196h134v209h-134v-209z" />
    <glyph glyph-name="trademark" unicode="&#xe5;" 
d="M842 557v-166q-4 -160 -119 -233q-115 -76 -268 -76q-90 0 -158 49q-70 47 -72 141q4 209 299 226q80 4 160 18q80 12 158 41v0zM465 596q-371 -51 -371 -320q2 -153 109 -227q102 -78 245 -78q236 2 396 176v0q2 -55 20 -100q19 -45 78 -57q27 -6 55 -6q29 0 58 10
q26 6 39 10v96v0q-76 -26 -103 -6q-29 19 -26 88v578q-3 182 -111 258q-109 71 -274 71q-177 0 -297 -79q-121 -84 -140 -271h125q21 137 101 191q82 51 208 49q144 -2 205 -60q60 -59 60 -155q0 -29 -6 -62q-9 -32 -39 -49q-33 -12 -78 -22q-47 -8 -84 -13zM579 1184
q86 2 143 61q58 57 60 141q-2 86 -60 146q-57 57 -143 59q-82 -2 -141 -59q-64 -60 -64 -146q2 -84 62 -141q57 -59 143 -61v0zM579 1251q-55 0 -94 41q-43 39 -43 94q0 58 43 99q39 39 94 39q57 -2 96 -41t39 -97q0 -53 -39 -92q-39 -43 -96 -43v0z" />
    <glyph glyph-name="guilsinglleft" unicode="&#xe6;" horiz-adv-x="1821" 
d="M805 561v-143q0 -328 -373 -336q-217 0 -221 207q2 100 68 143q63 41 157 55q96 17 197 29q98 10 172 45v0zM936 604q0 60 18 125q19 64 58 121t106 94q68 35 162 35q164 -2 244 -111q79 -106 79 -264h-667zM448 604q-370 -49 -368 -334q2 -151 100 -225q96 -74 242 -74
q194 4 295 78q51 35 88 76t63 80v0q140 -234 410 -234q362 4 448 357h-129q-63 -242 -309 -246q-186 2 -268 125q-84 119 -84 295h799q2 252 -91 417q-98 166 -360 170q-119 0 -209 -34q-92 -37 -162 -140v0q-47 105 -153 142q-109 32 -217 32q-170 0 -285 -79
q-117 -84 -133 -265h127q16 129 94 183q78 51 201 51q141 0 200 -47q58 -51 58 -185q0 -30 -6 -49q-9 -20 -33 -37q-47 -28 -201 -45z" />
    <glyph glyph-name="acute" unicode="&#xe7;" 
d="M1024 727q-66 365 -440 362q-238 -4 -361 -167q-127 -164 -127 -394q0 -223 103 -372q104 -152 321 -179l-106 -145l30 -27q45 17 90 17q43 0 72 -19q29 -18 31 -61q-2 -51 -43 -72q-43 -24 -92 -24q-68 2 -131 30l-31 -61q90 -37 186 -39q103 0 174 51q70 49 52 158
q-7 41 -48 74q-40 32 -110 32q-37 0 -74 -12l74 92q387 29 446 396h-131q-47 -281 -325 -285q-189 4 -273 141q-84 133 -84 305q-2 174 86 310q84 137 271 141q247 -4 315 -252h125z" />
    <glyph glyph-name="notequal" unicode="&#xe8;" 
d="M223 604q19 156 107 264q88 109 250 111q165 -2 251 -109q84 -104 84 -266h-692zM1046 502q-14 583 -466 587q-230 -4 -357 -163q-131 -160 -131 -400q-2 -239 117 -393q119 -158 371 -162q200 2 309 103q106 98 149 252h-137q-68 -242 -321 -244q-177 2 -267 125
q-90 119 -90 295h823zM609 1175h104l-227 285h-160z" />
    <glyph glyph-name="dieresis" unicode="&#xe9;" 
d="M223 604q19 156 107 264q88 109 250 111q165 -2 251 -109q84 -104 84 -266h-692zM1046 502q-14 583 -466 587q-230 -4 -357 -163q-131 -160 -131 -400q-2 -239 117 -393q119 -158 371 -162q200 2 309 103q106 98 149 252h-137q-68 -242 -321 -244q-177 2 -267 125
q-90 119 -90 295h823zM566 1175l280 285h-157l-228 -285h105z" />
    <glyph glyph-name="AE" unicode="&#xea;" 
d="M223 604q19 156 107 264q88 109 250 111q165 -2 251 -109q84 -104 84 -266h-692zM1046 502q-14 583 -466 587q-230 -4 -357 -163q-131 -160 -131 -400q-2 -239 117 -393q119 -158 371 -162q200 2 309 103q106 98 149 252h-137q-68 -242 -321 -244q-177 2 -267 125
q-90 119 -90 295h823zM582 1384v0l168 -209h133l-231 285h-137l-234 -285h133z" />
    <glyph glyph-name="Oslash" unicode="&#xeb;" 
d="M223 604q19 156 107 264q88 109 250 111q165 -2 251 -109q84 -104 84 -266h-692zM1046 502q-14 583 -466 587q-230 -4 -357 -163q-131 -160 -131 -400q-2 -239 117 -393q119 -158 371 -162q200 2 309 103q106 98 149 252h-137q-68 -242 -321 -244q-177 2 -267 125
q-90 119 -90 295h823zM358 1196h133v209h-133v-209zM683 1196h134v209h-134v-209z" />
    <glyph glyph-name="plusminus" unicode="&#xec;" horiz-adv-x="455" 
d="M283 0v1061h-123v-1061h123zM258 1175h104l-227 285h-160z" />
    <glyph glyph-name="infinity" unicode="&#xed;" horiz-adv-x="455" 
d="M283 0v1061h-123v-1061h123zM172 1175l280 285h-157l-228 -285h105z" />
    <glyph glyph-name="lessequal" unicode="&#xee;" horiz-adv-x="455" 
d="M283 0v1061h-123v-1061h123zM189 1384v0l168 -209h133l-231 285h-137l-234 -285h133z" />
    <glyph glyph-name="greaterequal" unicode="&#xef;" horiz-adv-x="455" 
d="M283 0v1061h-123v-1061h123zM-35 1196h133v209h-133v-209zM290 1196h134v209h-134v-209z" />
    <glyph glyph-name="glyph164" unicode="&#xf0;" 
d="M930 530q0 -176 -82 -309q-86 -137 -279 -139q-176 2 -266 127q-94 121 -94 321q0 179 84 312t276 137q195 -2 279 -129t82 -320v0zM549 1200l125 100v0q116 -102 186 -305v0q-70 58 -135 78q-66 16 -164 16q-254 -4 -369 -174q-114 -165 -114 -385q2 -276 145 -415
q137 -142 346 -144q228 2 359 156q131 147 133 403q-6 553 -307 834l120 98l-75 51v0l-113 -92v0q-76 58 -162 92l-84 -67q94 -41 164 -90l-133 -107l78 -49v0z" />
    <glyph glyph-name="yen" unicode="&#xf1;" 
d="M270 571q-2 105 27 201q33 86 106 145q74 60 189 62q278 0 274 -287v-692h123v694q0 68 -6 129q-8 60 -47 115q-121 156 -324 151q-108 0 -188 -47q-82 -47 -154 -129v0v148h-123v-1061h123v571zM339 1200q13 41 35 70q21 28 66 30q69 -4 143 -45q37 -16 78 -30
q37 -17 78 -17q57 0 94 37q37 35 57 86q13 37 17 78h-78q-6 -39 -25 -68q-20 -34 -65 -34q-53 2 -123 38q-35 17 -66 33q-32 12 -63 17q-53 12 -100 -9q-48 -22 -80 -65q-33 -47 -41 -121h73z" />
    <glyph glyph-name="partialdiff" unicode="&#xf2;" 
d="M569 -29q228 2 359 156q131 147 133 403q0 240 -121 398q-123 157 -371 161q-245 -4 -368 -161q-123 -158 -123 -398q2 -276 145 -415q137 -142 346 -144v0zM930 530q0 -176 -82 -309q-86 -137 -279 -139q-176 2 -266 127q-94 121 -94 321q0 179 84 312t276 137
q195 -2 279 -129t82 -320v0zM613 1175h104l-227 285h-160z" />
    <glyph glyph-name="mu" unicode="&#xf3;" 
d="M569 -29q228 2 359 156q131 147 133 403q0 240 -121 398q-123 157 -371 161q-245 -4 -368 -161q-123 -158 -123 -398q2 -276 145 -415q137 -142 346 -144v0zM930 530q0 -176 -82 -309q-86 -137 -279 -139q-176 2 -266 127q-94 121 -94 321q0 179 84 312t276 137
q195 -2 279 -129t82 -320v0zM570 1175l280 285h-157l-228 -285h105z" />
    <glyph glyph-name="summation" unicode="&#xf4;" 
d="M569 -29q228 2 359 156q131 147 133 403q0 240 -121 398q-123 157 -371 161q-245 -4 -368 -161q-123 -158 -123 -398q2 -276 145 -415q137 -142 346 -144v0zM930 530q0 -176 -82 -309q-86 -137 -279 -139q-176 2 -266 127q-94 121 -94 321q0 179 84 312t276 137
q195 -2 279 -129t82 -320v0zM587 1384v0l168 -209h133l-231 285h-137l-234 -285h133z" />
    <glyph glyph-name="pi" unicode="&#xf5;" 
d="M569 -29q228 2 359 156q131 147 133 403q0 240 -121 398q-123 157 -371 161q-245 -4 -368 -161q-123 -158 -123 -398q2 -276 145 -415q137 -142 346 -144v0zM930 530q0 -176 -82 -309q-86 -137 -279 -139q-176 2 -266 127q-94 121 -94 321q0 179 84 312t276 137
q195 -2 279 -129t82 -320v0zM340 1200q13 41 35 70q21 28 66 30q69 -4 143 -45q37 -16 78 -30q37 -17 78 -17q57 0 94 37q37 35 57 86q13 37 17 78h-78q-6 -39 -25 -68q-20 -34 -65 -34q-53 2 -123 38q-35 17 -66 33q-32 12 -63 17q-53 12 -100 -9q-48 -22 -80 -65
q-33 -47 -41 -121h73z" />
    <glyph glyph-name="product" unicode="&#xf6;" 
d="M569 -29q228 2 359 156q131 147 133 403q0 240 -121 398q-123 157 -371 161q-245 -4 -368 -161q-123 -158 -123 -398q2 -276 145 -415q137 -142 346 -144v0zM930 530q0 -176 -82 -309q-86 -137 -279 -139q-176 2 -266 127q-94 121 -94 321q0 179 84 312t276 137
q195 -2 279 -129t82 -320v0zM360 1196h133v209h-133v-209zM685 1196h134v209h-134v-209z" />
    <glyph glyph-name="Ugrave" unicode="&#xf7;" horiz-adv-x="1352" 
d="M164 451h1024v122h-1024v-122zM752 0v180h-150v-180h150zM752 844v180h-150v-180h150z" />
    <glyph glyph-name="guilsinglright" unicode="&#xf8;" 
d="M276 254v0q-61 84 -63 274q0 179 84 312q84 135 276 139q93 -2 150 -29q59 -28 86 -63zM870 813v0q66 -123 64 -285q0 -174 -82 -307q-86 -137 -279 -139q-65 0 -129 24q-65 23 -112 68zM145 -47l111 131v0q45 -43 125 -76q80 -35 192 -37q238 2 365 156q127 152 127 401
q0 230 -111 383l113 133l-72 64v0l-106 -127v0q-119 106 -316 108q-245 -4 -368 -161q-123 -160 -123 -400q-2 -221 108 -376l-118 -140l73 -59v0z" />
    <glyph glyph-name="ordfeminine" unicode="&#xf9;" 
d="M866 483q0 -178 -84 -286q-84 -113 -239 -115q-277 2 -273 283v696h-123v-699q-2 -167 84 -276q84 -113 293 -115q70 2 125 21q53 16 92 41q41 28 72 59q31 29 53 55v0v-147h123v1061h-123v-578zM607 1175h104l-227 285h-160z" />
    <glyph glyph-name="integral" unicode="&#xfa;" 
d="M866 483q0 -178 -84 -286q-84 -113 -239 -115q-277 2 -273 283v696h-123v-699q-2 -167 84 -276q84 -113 293 -115q70 2 125 21q53 16 92 41q41 28 72 59q31 29 53 55v0v-147h123v1061h-123v-578zM564 1175l280 285h-157l-228 -285h105z" />
    <glyph glyph-name="ordmasculine" unicode="&#xfb;" 
d="M866 483q0 -178 -84 -286q-84 -113 -239 -115q-277 2 -273 283v696h-123v-699q-2 -167 84 -276q84 -113 293 -115q70 2 125 21q53 16 92 41q41 28 72 59q31 29 53 55v0v-147h123v1061h-123v-578zM581 1384v0l168 -209h133l-231 285h-137l-234 -285h133z" />
    <glyph glyph-name="Omega" unicode="&#xfc;" 
d="M866 483q0 -178 -84 -286q-84 -113 -239 -115q-277 2 -273 283v696h-123v-699q-2 -167 84 -276q84 -113 293 -115q70 2 125 21q53 16 92 41q41 28 72 59q31 29 53 55v0v-147h123v1061h-123v-578zM357 1196h133v209h-133v-209zM682 1196h134v209h-134v-209z" />
    <glyph glyph-name="glyph176" unicode="&#xfd;" horiz-adv-x="1024" 
d="M139 -403q51 -13 117 -15q125 2 197 119q69 113 139 313l395 1047h-133l-340 -912v0l-340 912h-137l411 -1069q-14 -35 -30 -82q-15 -51 -37 -98q-21 -47 -53 -78q-33 -33 -86 -35q-54 2 -103 12v-114zM511 1175l280 285h-157l-228 -285h105z" />
    <glyph glyph-name="glyph167" unicode="&#xfe;" horiz-adv-x="1251" 
d="M285 526q0 197 94 324q90 127 264 129q160 0 260 -107q98 -108 102 -309q11 -205 -79 -338q-93 -141 -283 -143q-168 2 -262 133q-96 129 -96 311v0zM285 170v0q61 -96 163 -145q103 -54 216 -54q241 4 358 172q115 162 115 389q0 242 -109 398q-115 157 -371 159
q-104 0 -206 -53q-103 -55 -162 -162h-4v600h-123v-1892h123v588z" />
    <glyph glyph-name="circumflex" unicode="&#xff;" horiz-adv-x="1024" 
d="M139 -403q51 -13 117 -15q125 2 197 119q69 113 139 313l395 1047h-133l-340 -912v0l-340 912h-137l411 -1069q-14 -35 -30 -82q-15 -51 -37 -98q-21 -47 -53 -78q-33 -33 -86 -35q-54 2 -103 12v-114zM303 1196h133v209h-133v-209zM628 1196h134v209h-134v-209z" />
    <glyph glyph-name="onequarter" unicode="&#x131;" horiz-adv-x="455" 
d="M283 0v1061h-123v-1061h123z" />
    <glyph glyph-name="glyph142" unicode="&#x141;" 
d="M1096 0v119h-791v721l166 82v122v0l-166 -82v0v512h-139v-614l-166 -82v-123v0l166 82v0v-737h930z" />
    <glyph glyph-name="glyph148" unicode="&#x142;" horiz-adv-x="455" 
d="M289 0v799l145 82v122v0l-145 -81v0v552h-123v-655l-146 -82v-123v0l146 82v0v-696h123z" />
    <glyph glyph-name="Idieresis" unicode="&#x152;" horiz-adv-x="2048" 
d="M1120 453q0 -80 -18 -144q-19 -63 -82 -119q-129 -108 -295 -110q-262 2 -381 186q-121 180 -121 473q4 654 486 656q403 -2 411 -375v-567zM1126 147v-147h854v119h-721v585h656v119h-656v533h701v118h-834v-155v0q-71 114 -176 158q-108 38 -241 36q-326 -4 -476 -227
q-151 -219 -149 -551q-2 -311 147 -536q148 -232 484 -238q149 2 245 57q97 54 166 129v0z" />
    <glyph glyph-name="Igrave" unicode="&#x153;" horiz-adv-x="1933" 
d="M1851 502q4 239 -84 409q-49 84 -137 131t-229 47q-289 0 -420 -256v0q-129 259 -426 256q-250 -4 -365 -161q-118 -160 -116 -400q2 -258 133 -405q125 -150 340 -152q295 0 434 258v0q55 -112 164 -182q104 -74 256 -76q348 2 436 357h-125q-61 -240 -307 -246
q-105 0 -174 47q-72 41 -115 107q-43 67 -57 139q-2 18 -6 37q-2 16 -7 30q-2 31 0 60h805zM205 510q-4 219 86 344q88 123 254 125q186 -2 278 -121q92 -117 92 -307q0 -209 -90 -336q-92 -131 -268 -133q-178 2 -264 129q-88 123 -88 299v0zM1046 604q11 158 101 264
q90 109 248 111q172 -2 249 -105q76 -104 76 -270h-674z" />
    <glyph glyph-name="glyph208" unicode="&#x160;" horiz-adv-x="1251" 
d="M88 440q2 -239 154 -358q145 -121 381 -121q530 6 538 430q0 107 -35 180q-34 70 -94 115q-59 47 -135 74q-76 26 -160 43q-82 18 -160 37q-79 18 -145 45q-65 26 -110 71q-48 43 -60 113q-18 121 66 221t295 105q147 0 253 -74q107 -80 109 -248h133q2 186 -121 311
q-125 127 -374 129q-246 -4 -373 -118q-127 -117 -127 -277q0 -106 41 -176q39 -72 100 -117q66 -45 146 -71q79 -27 163 -47q88 -19 168 -39q78 -21 142 -56q65 -32 102 -86q37 -55 37 -141q0 -123 -86 -211q-90 -92 -289 -94q-172 -2 -287 82q-116 84 -137 278h-135z
M643 1665v0l-168 209h-133l234 -285h137l231 285h-133z" />
    <glyph glyph-name="glyph181" unicode="&#x161;" horiz-adv-x="1024" 
d="M94 332q10 -154 113 -254q102 -105 291 -107q190 0 311 80q119 78 121 230q0 77 -27 129q-29 53 -78 86q-47 34 -108 55q-62 20 -127 35q-131 26 -232 69q-49 23 -77 56q-31 34 -31 86q2 176 239 182q117 0 195 -49q76 -51 92 -174h125q-55 340 -410 333
q-176 -2 -272 -84q-100 -83 -100 -219q0 -75 30 -127q29 -51 78 -84q49 -30 111 -49q31 -10 61 -16q29 -8 60 -19q65 -12 127 -24q30 -6 59 -16q29 -9 49 -21q49 -20 78 -57q27 -37 27 -94q0 -80 -64 -136q-63 -59 -198 -61q-269 -6 -318 250h-125zM526 1251v0l-168 209
h-133l234 -285h137l231 285h-133z" />
    <glyph glyph-name="tilde" unicode="&#x178;" horiz-adv-x="1251" 
d="M618 764l-434 710h-159l526 -841v-633h139v643l535 831h-162l-445 -710v0zM420 1610h133v209h-133v-209zM745 1610h134v209h-134v-209z" />
    <glyph glyph-name="quotesinglbase" unicode="&#x192;" 
d="M1104 1462q-68 41 -144 41q-112 0 -182 -57q-71 -58 -110 -148q-19 -43 -35 -92q-17 -49 -29 -98q-24 -103 -45 -191h-248v-98h232l-60 -332q-59 -368 -127 -571q-65 -203 -184 -205q-57 -2 -106 27l-39 -117q55 -20 112 -22q193 4 281 159q45 74 76 170q28 97 49 203
l131 688h252v98h-236q19 72 33 150q14 76 35 145q20 70 55 117q33 47 90 57q57 11 90 2q35 -8 68 -26z" />
    <glyph glyph-name="threequarters" unicode="&#x2c6;" horiz-adv-x="682" 
d="M350 1384v0l168 -209h133l-231 285h-137l-234 -285h133z" />
    <glyph glyph-name="Ccaron" unicode="&#x2c7;" horiz-adv-x="682" 
d="M350 1251v0l-168 209h-133l234 -285h137l231 285h-133z" />
    <glyph glyph-name="gbreve" unicode="&#x2d8;" horiz-adv-x="682" 
d="M57 1446q31 -254 285 -258q264 0 305 258h-76q-45 -168 -219 -166q-174 -2 -215 166h-80z" />
    <glyph glyph-name="Idotaccent" unicode="&#x2d9;" horiz-adv-x="682" 
d="M274 1196h134v209h-134v-209z" />
    <glyph glyph-name="Scedilla" unicode="&#x2da;" horiz-adv-x="682" 
d="M342 1184q86 2 143 61q58 57 60 141q-2 86 -60 146q-57 57 -143 59q-82 -2 -141 -59q-64 -60 -64 -146q2 -84 62 -141q57 -59 143 -61v0zM342 1251q-55 0 -94 41q-43 39 -43 94q0 58 43 99q39 39 94 39q57 -2 96 -41t39 -97q0 -53 -39 -92q-39 -43 -96 -43v0z" />
    <glyph glyph-name="cacute" unicode="&#x2db;" horiz-adv-x="682" 
d="M305 0q-61 -31 -106 -84q-47 -53 -47 -127q2 -86 65 -131q62 -47 143 -47q56 0 107 18v90q-41 -18 -86 -18q-53 0 -92 31q-45 28 -45 86q2 61 57 108q53 45 107 70v4h-103z" />
    <glyph glyph-name="glyph130" unicode="&#x2dc;" horiz-adv-x="682" 
d="M106 1200q13 41 35 70q21 28 66 30q69 -4 143 -45q37 -16 78 -30q37 -17 78 -17q57 0 94 37q37 35 57 86q13 37 17 78h-78q-6 -39 -25 -68q-20 -34 -65 -34q-53 2 -123 38q-35 17 -66 33q-32 12 -63 17q-53 12 -100 -9q-48 -22 -80 -65q-33 -47 -41 -121h73z" />
    <glyph glyph-name="Oacute" unicode="&#x2013;" horiz-adv-x="1024" 
d="M1024 577h-1024v-90h1024v90z" />
    <glyph glyph-name="Ocircumflex" unicode="&#x2014;" horiz-adv-x="2048" 
d="M2048 487v90h-2048v-90h2048z" />
    <glyph glyph-name="Uacute" unicode="&#x2018;" horiz-adv-x="455" 
d="M141 1014h150v180h-70v70q0 59 25 92q20 28 45 43v75q-66 -18 -107 -73q-43 -56 -43 -146v-241z" />
    <glyph glyph-name="Ucircumflex" unicode="&#x2019;" horiz-adv-x="455" 
d="M313 1474h-149v-180h69v-69q0 -60 -20 -90q-23 -31 -49 -46v-75q67 20 108 75q41 56 41 144v241z" />
    <glyph glyph-name="Lslash" unicode="&#x201a;" horiz-adv-x="455" 
d="M313 180h-149v-180h69v-70q0 -59 -20 -90q-23 -30 -49 -45v-76q67 21 108 76q41 56 41 144v241z" />
    <glyph glyph-name="apple" unicode="&#x201c;" horiz-adv-x="797" 
d="M485 1014h150v180h-70v70q0 59 25 92q20 28 45 43v75q-66 -18 -107 -73q-43 -56 -43 -146v-241zM176 1014h150v180h-70v70q0 59 25 92q20 28 45 43v75q-66 -18 -107 -73q-43 -56 -43 -146v-241z" />
    <glyph glyph-name="Ograve" unicode="&#x201d;" horiz-adv-x="797" 
d="M620 1474h-149v-180h70v-69q0 -60 -21 -90q-22 -31 -49 -46v-75q68 20 109 75q40 56 40 144v241zM311 1474h-149v-180h69v-69q0 -60 -20 -90q-23 -31 -49 -46v-75q67 20 108 75q41 56 41 144v241z" />
    <glyph glyph-name="lslash" unicode="&#x201e;" horiz-adv-x="797" 
d="M620 180h-149v-180h70v-70q0 -59 -21 -90q-22 -30 -49 -45v-76q68 21 109 76q40 56 40 144v241zM311 180h-149v-180h69v-70q0 -59 -20 -90q-23 -30 -49 -45v-76q67 21 108 76q41 56 41 144v241z" />
    <glyph glyph-name="ae" unicode="&#x2020;" 
d="M508 -340h123v1233h432v110h-432v471h-123v-471h-432v-110h432v-1233z" />
    <glyph glyph-name="ogonek" unicode="&#x2021;" 
d="M508 223h-432v-110h432v-453h123v453h432v110h-432v684h432v111h-432v456h-123v-456h-432v-111h432v-684z" />
    <glyph glyph-name="radical" unicode="&#x2022;" horiz-adv-x="1024" 
d="M881 735q-2 158 -107 264q-106 105 -264 107q-154 -2 -256 -107q-109 -106 -111 -264q2 -153 111 -256q102 -108 256 -110q158 2 264 110q105 103 107 256v0z" />
    <glyph glyph-name="Aacute" unicode="&#x2026;" horiz-adv-x="2048" 
d="M418 0v180h-150v-180h150zM1100 0v180h-150v-180h150zM1782 0v180h-150v-180h150z" />
    <glyph glyph-name="Scaron" unicode="&#x2030;" horiz-adv-x="2048" 
d="M1712 612q-127 -2 -213 -90q-92 -86 -94 -217q2 -129 92 -215q86 -88 215 -90q131 2 217 90q86 86 88 215q-2 131 -88 217q-86 88 -217 90v0zM1712 117q-76 0 -131 57q-59 55 -59 131q0 80 57 135q55 54 133 56q80 -2 133 -58q53 -53 55 -133q-2 -76 -57 -131
q-55 -57 -131 -57v0zM334 1429q-127 -2 -213 -90q-90 -86 -92 -215q2 -127 90 -213q86 -92 215 -94q131 2 217 92q88 86 90 215q-2 131 -90 217q-86 86 -217 88v0zM334 1313q80 -2 135 -56q55 -53 55 -133q-2 -75 -57 -131q-53 -59 -133 -59q-76 0 -131 59q-58 56 -58 131
q0 80 58 133q51 54 131 56v0zM969 612q-127 -2 -213 -90q-90 -86 -92 -217q2 -127 90 -213q86 -90 215 -92q131 2 217 90q88 86 90 215q-2 131 -90 217q-86 88 -217 90v0zM969 117q-76 0 -131 57q-58 55 -58 131q0 80 58 133q51 56 131 58q80 -2 135 -58q53 -53 55 -133
q-2 -76 -57 -131q-56 -57 -133 -57v0zM285 -29l833 1473h-108l-834 -1473h109z" />
    <glyph glyph-name="dotaccent" unicode="&#x2039;" horiz-adv-x="797" 
d="M248 467l299 -227v0v127l-213 163l213 168v129v0l-299 -231v-129z" />
    <glyph glyph-name="ring" unicode="&#x203a;" horiz-adv-x="797" 
d="M549 600l-299 227v0v-127l213 -163l-213 -168v-129v0l299 231v129z" />
    <glyph glyph-name="guillemotright" unicode="&#x2122;" horiz-adv-x="1925" 
d="M1759 1474h-196l-242 -636h-4l-246 636h-197v-862h107v772h4l297 -772h70l297 772h4v-772h106v862zM715 1474h-656v-81h275v-781h106v781h275v81z" />
    <glyph glyph-name="glyph162" unicode="&#x2212;" horiz-adv-x="1352" 
d="M164 451h1024v122h-1024v-122z" />
    <glyph glyph-name="macron" unicode="&#x2215;" horiz-adv-x="342" 
d="M-231 -29l909 1473h-105l-909 -1473h105z" />
    <glyph glyph-name="caron" unicode="&#x2219;" horiz-adv-x="569" 
d="M285 815q-39 0 -68 -29q-33 -28 -33 -69t31 -70q29 -31 70 -31q43 0 71 31q27 29 27 70q-4 94 -98 98v0z" />
    <glyph glyph-name="cedilla" unicode="&#xf001;" horiz-adv-x="1024" 
d="M188 958v-958h123v958h201v103h-201v131q-2 78 19 139q20 59 112 62q35 0 74 -11v113q-47 8 -102 8q-232 -6 -226 -274v-168h-161v-103h161zM885 0v1061h-123v-1061h123zM891 1474h-135v-182h135v182z" />
    <glyph glyph-name="hungarumlaut" unicode="&#xf002;" horiz-adv-x="1024" 
d="M188 958v-958h123v958h201v103h-201v131q-2 78 19 139q20 59 112 62q35 0 74 -11v113q-47 8 -102 8q-232 -6 -226 -274v-168h-161v-103h161zM885 0v1474h-123v-1474h123z" />
    <glyph glyph-name="two" horiz-adv-x="0" 
 />
    </font>
</defs>
</svg>
